留言板

这里您可以随便说说您对 VinMusic 唯音乐 的看法。批评、赞扬、评论、建议任何都行,您的留言就是对我们的最大鼓舞!

求歌的童鞋也请在此留言,我们会尽最大努力帮助您的!

目前首页不再随便接受友情链接,如果您仍然希望交换链接的话,我们只能把您的链接放在一个单独的页面里。但是我们会把朋友的链接无条件放在首页,我们始终把踊跃和我们交流的朋友放在第一位!如果需要联系我们,请发邮件:feicun1006 at gmail.com

527 评论

  1. 老弟/兄,你这个防盗链可真害苦我了。我就基本上一直是在Greader里看的。哎~算了,以后多来这里溜达溜达好了。大不了把你扔到FastDial里去。

    1. 啊,真不好意思啊,我这几天也问了一些朋友,想让图片在阅读器里显示,但是一直没弄好,唉……对不起了 😳

      1. 相比服务器宕机,这点痛苦还是能承受的,加油。o(∩_∩)o…

  2. feicun兄,最近喜欢上了一个叫Olafur Arnalds的挪威小伙子。他的专辑在VC上只有一张,我消息渠道不畅,这家伙是不是就出过这么一张专辑呢?

  3. 同学,不知道你有没有些itunes lp的资源可以分享一下。我在学校,电驴是指望不上了。谢谢。

        1. 有的,你把本站链接加到阅读器里面,阅读器会自动找到feed的,不过最近几天要换域名了,要是不着急的话可以先等等 😛

  4. 想请教下,一只专辑里,ape格式的,想不要几只歌,然后刻录…怎弄呢..
    或者有没好点的刻录论坛推荐下… 😳

    1. 这样的话你可以单独给那几首歌做个CUE,然后用那个CUE刻录。参考一下我以前写的文章吧……没有听说过抓们的刻录论坛,不好意思

      1. >.< 我直接用foobar(这里下滴)将ape转成一首首的wav,然后用Easy CD-DA Extractor把喜欢的拉进去刻录,这样行不行呢…
        Easy CD-DA Extractor和EAC刻录出来有分别嘛?因为在这里看您介绍的都是用EAC呢.刚开始耍,不太会…

        1. 转换成wav这一步肯定没问题。至于用Easy CD-DA Extractor还是EAC,是有一点点区别的,简单点说,如果你没有上万的音箱或者几千的监听级耳机,它们刻录出来的差别是非常难听出来的。我之所以推荐大家用EAC,仅仅是因为它是一个更完美的解决方法,但是完美的代价就是繁琐。

          1. 下了个EAC,弄了会,真的复杂很多呢~
            路漫漫其修远兮吖~~

          2. 监听就不要买了,没音染听着不爽,HiFi还好,我们还是凑合娱乐耳机吧

          3. 我主要是刻录放音响的说…
            今天把刻录碟和正版cd对比播,很大分别呢~ 刻录的差很多.

    1. 虽然我不知道你说的梵天是哪个,但是我们肯定会继续努力的,谢谢支持!

      1. 就是西尔德斯神话,see2say的前身啦,有兴趣的话可以去http://www.w-o-fantian.com/看看 😉

  5. 以下是我在驴上,下的后街男孩的一张cd。包括两个文件,(cue、ape)cue是这样的:PERFORMER “Backstreet Boys”
    TITLE “后街男孩——精选集”
    FILE “BackstreetBoys.ape” WAVE
    TRACK 01 AUDIO
    TITLE “I Want It That Way”
    PERFORMER “Backstreet Boys”
    INDEX 01 00:00:00
    TRACK 02 AUDIO
    TITLE “Everybody”
    PERFORMER “Backstreet Boys”
    INDEX 00 03:33:47
    INDEX 01 03:35:12
    TRACK 03 AUDIO
    TITLE “As Long As You Love Me”
    PERFORMER “Backstreet Boys”
    INDEX 00 08:21:35
    INDEX 01 08:23:02
    TRACK 04 AUDIO
    TITLE “Show Me The Meaning Of Being Lonely”
    PERFORMER “Backstreet Boys”
    INDEX 00 11:55:39
    INDEX 01 11:57:05
    TRACK 05 AUDIO
    TITLE “Quit Playing Games”
    PERFORMER “Backstreet Boys”
    INDEX 00 15:51:72
    INDEX 01 15:53:40
    TRACK 06 AUDIO
    TITLE “We’ve Got It Goin’On”
    PERFORMER “Backstreet Boys”
    INDEX 00 19:46:01
    INDEX 01 19:47:42
    TRACK 07 AUDIO
    TITLE “All I Have To Give”
    PERFORMER “Backstreet Boys”
    INDEX 00 23:27:07
    INDEX 01 23:28:47
    TRACK 08 AUDIO
    TITLE “Large Than Life”
    PERFORMER “Backstreet Boys”
    INDEX 00 28:05:26
    INDEX 01 28:06:67
    TRACK 09 AUDIO
    TITLE “I’ll Never Break Your Heart”
    PERFORMER “Backstreet Boys”
    INDEX 00 31:59:40
    INDEX 01 32:01:07
    TRACK 10 AUDIO
    TITLE “The Call”
    PERFORMER “Backstreet Boys”
    INDEX 00 36:50:03
    INDEX 01 36:51:45
    TRACK 11 AUDIO
    TITLE “Shape Of My Heart”
    PERFORMER “Backstreet Boys”
    INDEX 00 40:15:32
    INDEX 01 40:17:00
    TRACK 12 AUDIO
    TITLE “Get Down”
    PERFORMER “Backstreet Boys”
    INDEX 00 44:07:40
    INDEX 01 44:09:07
    TRACK 13 AUDIO
    TITLE “Anywhere For You”
    PERFORMER “Backstreet Boys”
    INDEX 00 47:59:73
    INDEX 01 48:01:40
    TRACK 14 AUDIO
    TITLE “The One ”
    PERFORMER “Backstreet Boys”
    INDEX 00 52:42:02
    INDEX 01 52:43:45
    TRACK 15 AUDIO
    TITLE “More Than That ”
    PERFORMER “Backstreet Boys”
    INDEX 00 56:30:35
    INDEX 01 56:32:02
    TRACK 16 AUDIO
    TITLE “The Perfect Fan”
    PERFORMER “Backstreet Boys”
    INDEX 00 60:14:22
    INDEX 01 60:16:02

    有过好多软件刻录都刻录不了!报错第三行执行错误。我也比对了一下文件名可是并没有错误!主要用nero9.谢谢 哪位大哥指点。不胜感激。

    1. 不好意思,能把你的报错信息提供一下吗?如果是第三行错误的话,我估计还是文件名不对,或者你那个nero不支持ape格式。你先看看文件名是否确实匹配,特别是扩展名是否正确。如果文件名没问题的话,很可能就是你的nero不支持ape格式,你需要安装ape插件或者把ape转为wav

    2. 不管第几行吧,尽量不要用不常用的字符,比如说把破折号去掉
      再把cue另存为ANSI和UTF-8都试试

  6. Hi 😀 最近能发点那种评价意义很高,极为推荐获大奖的–好听轻松的钢琴曲,好不好

    1. 已经添加!印象中这好像已经是贵站第四次来申请链接了,非常感动,感谢贵站的支持!

  7. 第一次来,感觉蛮不错的。
    自从rainred关了以后,就没上过这么好的网了。

  8. 😀 我想求这张的原声无损CD,这张CD为OVA版(http://www.xiami.com/album/329730/)精选辑中的极品,《ロードス島戦記 BEST COLLECTION》

  9. 请问有没有Schuyler Fisk的“I Just Remember Goodbye”
    找不到。。。请各位帮帮忙~~~ 🙂

    1. @阿落易, 刚刚查了一下,这首歌应该是《格雷的困扰》这部电影的原声大碟里面的,你可以去找一下这张原声大碟

      1. @feicun,
        嗯。。。我知道是Gray Matters这个电影里的歌。。但搜了很多网站都没有。。。你可以帮我搜搜看吗。。。

    1. @安, LinkWithin现在对咱们这儿的显示好像有问题,我给他们发了两封邮件了,还没回复

  10. 刚在google.cn不小心搜索了“它”这个字,“VinMusic 唯音乐”赫然排在搜索结果的第3项,看来网站很有人气哦~~ (http://www.google.cn/search?hl=zh-CN&source=hp&q=%E5%AE%83&btnG=Google+%E6%90%9C%E7%B4%A2&aq=f&oq=&esrch=FT1)

  11. 还是喜欢之前的页面多点,轻松清爽的感觉.
    现在的总感觉有点沉有点乱,或许还不习惯吧…

  12. 很喜欢你的博客,分享了很多欧美音乐,很多欧美新歌都是从你这里知道的,但我有一些疑问,你如何获得专辑的最新资料的呢?直接访问国外的网站吗?我也想成为一个贡献者,而不是一直是个Downloader。

    1. @Blues, 是的,关注国外的音乐网站就可以了解这些专辑的最新信息了,而且我也不是贡献者,我充其量就是一个盗版资源的搬运工……

      1. @feicun, 呵呵,对我们这些没什么功夫在国外网站上逛的人是一大贡献了,的确考验自己的英文水平了,但是作为实习医生记的东西太多,也没工夫整英语。
        刚刚看完Grammy,Taylor Swift虽然现场一直被人诟病,但她的歌就是好听、耐听,人也亲和、甜美,让我开始接触了很多很好的乡村音乐!

        1. @Blues, 其实个人觉得taylor已经不算传统的乡村了,不过她的歌倒是很符合市场,就像你说的,好听耐听,这就够了

          1. @feicun, 那是,Sugarland,Lady Antebellum,Keith Urban都不是传统的乡村,但都很畅销的,还通过Taylor他们认识了一些Brad Paisley,Kenny Chesney,乡村的都很好听耐听。

  13. 有一段时间没有上来了,刚进主页吓了一跳。进错了吧,背景好花,看得眼睛怪难受的。对证一下网址,不对。但点击原来在下收藏的网页还是跑到这这里来了,纠结,不会真是吧!?随机的浏览了一下,果真是这个,晕~~看到博主的名字了。网址也改了,界面也改了,好伤心啊!在下还是喜欢之前的简约界面,更加喜欢之前的网站名字——音乐它

    1. @genius, 界面的问题还好说,以后还会换新的界面,但是网址和名字不会再改变了。以前的域名由于国内互联网政策问题已经非常不安全,所以必须更换新的域名,所以麻烦把收藏夹里的网址改一下吧,麻烦了。欢迎再次回来!

  14. 我的英文实在是太菜了,国外的网站看了一头大。所以只好厚着脸皮来唯音搬呀搬。。呵呵

  15. 刚听到两首歌,算是民谣吧.
    Kathrine – Down at the Coffeeshop
    tatu – gomenasai
    很正呢,replay再replaying~

    1. @Elegy, Kathrine – Down at the Coffeeshop这首不了解,听了一下,还算是pop吧,t.A.T.u.肯定就是pop了,俄罗斯的lesbian组合……喜欢就好,听开心了就好 😉

  16. 我总是很奇怪你的page页的中文总和英文对不上。
    PS. caradillon.cn申请变更域名为caradillon.org

  17. :mrgreen: 原来除了Songtaste.com,这里也能听到很多灵魂音乐,特别是TOMI_ENN推荐的,不知道你们能不能找到那些歌。

    1. @八爪鱼, 欢迎常来~另外第一次留言的时候需要后台审核,所以你的留言才会看不到,不过以后留言的时候就不用审核了~

  18. 相见恨晚啊!
    已经添加订阅了,希望站长能把激情保持下去,做好做大这个站点。希望哪天能给别人骄傲的介绍这个音乐站

  19. 报告站长
    我想推荐一首公益歌曲《我是绿叶》
    实话说 就音乐而言 这歌并不咋地
    只是期望能通过歌曲起到对环保生活态度的传播

    1. @roymusic, 谢谢你对公益事业的关心!国内经常会出一些公益歌曲或者赈灾歌曲,不过坦白的说,这种音乐都不算是太好的作品,所以我不会去推广这种音乐,毕竟我们更关注的是音乐本身

  20. 以下是我在驴上,下的后街男孩的一张cd。包括两个文件,(cue、ape)cue是这样的:PERFORMER “Backstreet Boys”TITLE “后街男孩——精选集”FILE “BackstreetBoys.ape” WAVE TRACK 01 AUDIO TITLE “I Want It That Way” PERFORMER “Backstreet Boys” INDEX 01 00:00:00 TRACK 02 AUDIO TITLE “Everybody” PERFORMER “Backstreet Boys” INDEX 00 03:33:47 INDEX 01 03:35:12 TRACK 03 AUDIO TITLE “As Long As You Love Me” PERFORMER “Backstreet Boys” INDEX 00 08:21:35 INDEX 01 08:23:02 TRACK 04 AUDIO TITLE “Show Me The Meaning Of Being Lonely” PERFORMER “Backstreet Boys” INDEX 00 11:55:39 INDEX 01 11:57:05 TRACK 05 AUDIO TITLE “Quit Playing Games” PERFORMER “Backstreet Boys” INDEX 00 15:51:72 INDEX 01 15:53:40 TRACK 06 AUDIO TITLE “We’ve Got It Goin’On” PERFORMER “Backstreet Boys” INDEX 00 19:46:01 INDEX 01 19:47:42 TRACK 07 AUDIO TITLE “All I Have To Give” PERFORMER “Backstreet Boys” INDEX 00 23:27:07 INDEX 01 23:28:47 TRACK 08 AUDIO TITLE “Large Than Life” PERFORMER “Backstreet Boys” INDEX 00 28:05:26 INDEX 01 28:06:67 TRACK 09 AUDIO TITLE “I’ll Never Break Your Heart” PERFORMER “Backstreet Boys” INDEX 00 31:59:40 INDEX 01 32:01:07 TRACK 10 AUDIO TITLE “The Call” PERFORMER “Backstreet Boys” INDEX 00 36:50:03 INDEX 01 36:51:45 TRACK 11 AUDIO TITLE “Shape Of My Heart” PERFORMER “Backstreet Boys” INDEX 00 40:15:32 INDEX 01 40:17:00 TRACK 12 AUDIO TITLE “Get Down” PERFORMER “Backstreet Boys” INDEX 00 44:07:40 INDEX 01 44:09:07 TRACK 13 AUDIO TITLE “Anywhere For You” PERFORMER “Backstreet Boys” INDEX 00 47:59:73 INDEX 01 48:01:40 TRACK 14 AUDIO TITLE “The One ” PERFORMER “Backstreet Boys” INDEX 00 52:42:02 INDEX 01 52:43:45 TRACK 15 AUDIO TITLE “More Than That ” PERFORMER “Backstreet Boys” INDEX 00 56:30:35 INDEX 01 56:32:02 TRACK 16 AUDIO TITLE “The Perfect Fan” PERFORMER “Backstreet Boys” INDEX 00 60:14:22 INDEX 01 60:16:02
    +1

  21. 看了用foobar2000 音频播放器识别真假的文章,也学者做了设置,但却出现一下内容:
    转换器状态报告
    10超出10 音轨转换后有较大问题.

    来源:”F:\下载音乐\国外纯音乐\James.Last.专辑\James.Last.-.[Abendglocken].专辑.(APE).cue” / index: 7
    在写入文件时发生一个错误 (不支持的格式或文件损坏) : “C:\Documents and Settings\Administrator\桌面\新建文件夹\Kamarinskaja.aucdtect”
    转换失败: 不支持的格式或文件损坏
    请问这是怎么回事?

  22. 我在电驴上面下载了一个专集。。里面的APE整轨的。。而我又想用FOOBAR将这里面的每首歌转换成AAC。。就是说转换出来的歌曲是单独的,请问我应该怎么做??麻烦各位大大如果知道的,加我QQ100821958告诉我 不胜感激!!!

  23. 哈哈哈,昨天出分,我考上了一本,哈哈。
    没想到我这么不读书的人也能上一本,认真读书的反而上不了,哎。

    1. @realtjb, 这个主题是我自己汉化的……里面包含了很多关于这个博客内容的代码,所以抱歉不能分享……

发表评论

电子邮件地址不会被公开。 必填项已用*标注