如何把整轨/分轨APE、FLAC互转

有些童鞋很喜欢整轨的无损,按照他们的说法是整轨更容易管理。不过我发的资源并不一定全是整轨,所以我再提供一种把整轨、分轨APE、FLAC互转的方法。额外说一句,个人认为刻意追求整轨很没必要。

需要的工具:foobar2000,如此强大的音频管理/处理/播放软件应该是乐友必备!以下的截图和步骤都以foobar v0.9.6汉化版为例,其他版本foobar可能会与截图有所不同。

先来解决第一个问题:

1、分轨转整轨

打开需要转换的无损音频文件,选中你需要转换的歌曲,在歌曲名上点右键,选择“转换”,可以打开“转换器设置”,如下图:

foobar转换器设置

foobar转换器设置

在这个设置界面里你这要在“输出”选项卡里进行设置,注意,其他两个选项卡“处理”、“其它”里不要勾选任何一个选项。

输出”选项卡可以参照上图进行设置,输出格式可以选择“FLAC”,当然你也可以通过外加解码器转换为APE,推荐使用FLAC。另一个需要注意的是输出文件是选择“转换为包含多音轨”,这样才会生成整轨。

设置完毕之后点击确定,稍等你就会得到一个整轨无损文件。为什么强调是“一个”,只要你试一下就知道。转换得到的这个文件甚至连CUE都没有,但是却可以用foobar正确播放(千千静听未测试),相信对于那些觉得整轨容易管理的朋友会更喜欢这个东西。

为什么没有CUE?
因为生成的这个无损是内嵌了CUE。

如何把内嵌的CUE提取出来呢?
用foobar打开文件,随便在一首歌曲上点右键,依次选择“工具”—>“编辑 Cuesheet”,然后就会打开“内嵌 Cuesheet编辑器”,你就会看到CUE信息了,如下图:

foobar内嵌Cue Sheet编辑器

foobar内嵌Cue Sheet编辑器

把cue信息复制到记事本,存为.cue后缀的文件即可,注意保存时编码一般选ANSI。

2、整轨转为分轨

基本步骤与分轨转整轨一样,唯一不同的是“转换器设置”里输出文件是选择“转换每个音轨为单独文件”,就像下图这样:

输出文件设置

输出文件设置

嗯,结束,整轨分轨互转其实很容易的 😛



49 评论

    1. 所以这就是itunes的缺陷……再扯远一点说这是Windows的优势……

        1. 商业公司总要有自己的独立产品的, 比如Windows的WMV/WMA
          PS: Mac下面有很多处理或者播放APE的东西, 只是iTunes不支持而已, 有如Windows Media Player同样不支持APE一样. 懒得装而已~~
          至于Windows, 除了成批的游戏和其实并不必要的Office以外, 毫无优势可言~~

          1. 还是那句话,Windows对我来说最大的优势就是foobar和EAC :mrgreen:

          2. iTunes实际上用的是QuickTime的Codec,QuickTime是支持安装第三方Codec库的,比如Perian

      1. 呃。。。看到douban 9点上沙发还在我就来了,想不到。。。douban这么迟钝。。。
        iTunes很强大,苹果很固执,ipod耳机很一般,硬盘没有空间,我现在也就用mp3打发一下了

    1. Foobar也可以自己弄个歌词秀

      还有 如果自己懒得去研究 有些论坛提供插件集成版的下载 界面还是不错的 可以自己去找找 我电脑有一个 需要的 说一声吧

    1. 问题有三
      1.用foobar打开文件。这个是分轨原文件吧?
      2.打开“内嵌 Cuesheet编辑器”,你就会看到CUE信息了.我的看不到,要下载什么插件?

      1. 噢 行了
        REM GENRE Ambient Alternative
        REM DATE 2006
        PERFORMER “Bic Runga”
        TITLE “Birds”
        FILE “Bic Runga – Birds.wav” WAVE
        TRACK 01 AUDIO
        TITLE “Captured”
        INDEX 01 00:00:00
        TRACK 02 AUDIO
        TITLE “Birds (with birds intro)”
        INDEX 01 06:03:44
        TRACK 03 AUDIO
        TITLE “No Crying No More”
        INDEX 01 10:01:38
        TRACK 04 AUDIO
        TITLE “Wining Arrow”
        INDEX 01 12:06:46
        TRACK 05 AUDIO
        TITLE “If I Had You”
        INDEX 01 14:59:00
        TRACK 06 AUDIO
        TITLE “Say After Me”
        INDEX 01 19:46:60
        TRACK 07 AUDIO
        TITLE “Listen”
        INDEX 01 24:22:71
        TRACK 08 AUDIO
        TITLE “That’s Alright”
        INDEX 01 27:55:48
        TRACK 09 AUDIO
        TITLE “Blue Blue Heart”
        INDEX 01 31:17:49
        TRACK 10 AUDIO
        TITLE “Ruby Nights”
        INDEX 01 34:51:24
        TRACK 11 AUDIO
        TITLE “It’s Over”
        INDEX 01 39:13:40
        TRACK 12 AUDIO
        TITLE “Somewhere in the Night”
        INDEX 01 44:49:63

  1. 学习一下~~
    好像用EAC也能把分轨弄成整轨的。不知道FEICUN知道不?

  2. 哎呀,才一两天没来,我的名次就在灌水榜上下滑了,竞争真是激烈啊= =

    说起整轨和分轨,我还是更喜欢后者,因为这样可以直接把相听的曲目拷贝到MP4上播放,毕竟大多数MP4还是不支持cue的嘛

  3. 没必要,追求自然,除非放在MP3上听。看这截图难道feicun用的是苹果系统!?

    1. 呵呵,苹果下面可以没有foobar的,我这不过是一个仿苹果的界面

  4. 分轨转整轨后,用整轨无损转换的VBR音质MP3最后一首歌曲是rounded samples(CBR都是rounded samples)模式,而与以上歌曲的mod=588不同,当然这个音质上没有丝毫区别,只是对于我这种对格式的统一极具强迫症的人,接受不了。解决办法就是分轨无损转整轨无损时在最后多加一首转换,这样在正规无损转换VBR音质MP3后,多加的一首就是rounded samples,而专辑的真正最后一首(整轨倒数第二首)便与其他歌曲统一为mod=588了。说多了……

    1. 啊晕,都有无损了还要想办法转换成自己喜欢的mp3,你还真是偏执啊……

  5. 在用foobar内嵌Cue Sheet编辑器提取cue文件时,要注意,在FILE 行把”CDImage.wav”替换为真正的整轨文件名,否则这个cue文件是不能用的。好像不管是什么类型的文件,在FILE 行都是”CDImage.wav”

  6. 学习了……原来这么简单…….
    我一直有个一个ape和flac互转真的没有损耗吗?

  7. 我一直用的低版本的 0.9.4.5的转换器可以转flac/wav生成cue 用起来比这个应该方便 可是最近老是碰着莫名其妙的转不了– 用了这个版本的转换器倒是可以转整轨flac了 可是不能转带CUE的wav… 抓狂 纠结

发表评论

电子邮件地址不会被公开。 必填项已用*标注