无损音乐 CUE 文件简单说明

各种无损格式广大音乐爱好者都很熟悉了。一般来说,无论是FLAC还是APE格式,无论分轨还是整轨,都会自带一个CUE文件。经常制作无损音乐的人都知道,这个CUE文件很可能会和抓轨生成的音频文件不匹配,造成这种原因并不一定是因为抓轨过程不正确,其他原因比如文件名的改动都可能造成CUE出错的结果。

了解一些CUE的知识,可以让大家知道如何处理错误的CUE文件,所以下面feicun就简单介绍一些关于CUE的操作。

No. 1 修改错误的CUE文件

来看两个CUE的例子:(//后为注释)

1、这是一个整轨无损音频的CUE文件

PERFORMER “Mars Lasar”          //歌手或艺术家名字 ,大写的PERFORMER是字段名, ” “中的是内容
TITLE “sapphire dreams (A Romantic Interlude)”     //专辑名字,TITLE字段名, ” “中的是内容
FILE “sapphire dreams.ape” WAVE          //重要的文件名!它指示了.ape的文件名。这里必须和实际的文件名一致才行
TRACK 01 AUDIO          //音轨序列
TITLE “Belonging”       //歌曲名
PERFORMER “Mars Lasar”        //艺术家
INDEX 01 00:00:00           //时间索引
TRACK 02 AUDIO
TITLE “Garden of Eden”
PERFORMER “Mars Lasar”
INDEX 01 04:47:00
TRACK 03 AUDIO
TITLE “Sapphire Dreams”
PERFORMER “Mars Lasar”
INDEX 01 08:04:22
TRACK 04 AUDIO
TITLE “Blue Nile”
PERFORMER “Mars Lasar”
INDEX 01 12:22:27
TRACK 05 AUDIO
…//后面省略

2、和第一个CUE的格式类似,不过这个是分轨无损的CUE,区别是每个单独无损文件都有一个对应的文件名

PERFORMER “Coldplay”          //歌手或艺术家名字 ,大写的PERFORMER是字段名, ” “中的是内容
TITLE “Viva La Vida or Death And All His Friends”     //专辑名字,TITLE字段名, ” “中的是内容
FILE “01 Coldplay – Life In Technicolor.wav” WAVE    //文件名!它指示了这个单独的无损文件名
TRACK 01 AUDIO                 //音轨序列
INDEX 01 00:00:00            //时间索引
FILE “02 Coldplay – Cemeteries Of London.wav” WAVE    //文件名!它指示了这个单独的无损文件名
TRACK 02 AUDIO
INDEX 01 00:00:00
FILE “03 Coldplay – Lost!.wav” WAVE
TRACK 03 AUDIO
INDEX 01 00:00:00
FILE “04 Coldplay – 42.wav” WAVE
TRACK 04 AUDIO
INDEX 01 00:00:00
FILE “05 Coldplay – Lovers In Japan, Reign Of Love.wav” WAVE
TRACK 05 AUDIO
INDEX 01 00:00:00
FILE “06 Coldplay – Yes.wav” WAVE
TRACK 06 AUDIO
…//后面省略

很多情况下,CUE文件的错误都是由于 FILE 字段中文件名的不匹配引起的,所以,修改 FILE 字段里的文件名可以解决很多问题。

No.2 重建/自建 CUE 文件

有些时候我们得到的无损音乐并没有CUE文件,那么这个时候就需要自己动手创建一个CUE文件。为了达到这个目标,需要准备Foobar2000,以及它的一个插件 foo_cuesheet_creator.dll(点这里下载下载地址2)。

把这个插件放到foobar安装目录的components文件夹里,安装就算完成,然后在右键菜单里会出现如下图的选项,选择 “ Save as cuesheet…” 即可创建出一个CUE文件。

这是简单的办法,如果你愿意钻研,仿造上面的格式自己写一个也未尝不可。

————————————-分割线————————————-

这篇文章还有一个补遗篇,《无损音乐 CUE 文件简单说明 之 补遗》,欢迎查看:D

97 评论

发表评论

您的电子邮箱地址不会被公开。 必填项已用*标注